#TITLE:Purple Line;
#SUBTITLE:;
#ARTIST:TVXQ;
#TITLETRANSLIT:Purple Line;
#SUBTITLETRANSLIT:;
#ARTISTTRANSLIT:Dong Bang Shin Ki;
#CREDIT:;
#BANNER:Purple Line-bn.png;
#BACKGROUND:Purple Line-bg.png;
#LYRICSPATH:;
#CDTITLE:pm4cd.png;
#MUSIC:Purple Line.mp3;
#OFFSET:0.120;
#SAMPLESTART:40.900;
#SAMPLELENGTH:20.000;
#SELECTABLE:YES;
#BPMS:0.000=101.010,113.000=202.010,121.000=101.010,202.000=202.010,204.000=101.010,205.000=202.030,215.000=101.010;
#STOPS:;
#BGCHANGES:;
// cache tags:
#FIRSTBEAT:21.000;
#LASTBEAT:332.500;
#SONGFILENAME:Songs/Music V.I.P ^_^/Purple Line/Purple Line.sm;
#HASMUSIC:1;
#HASBANNER:1;
#MUSICLENGTH:195.108;
// end cache tags

//---------------dance-single - ----------------
#NOTES:
     dance-single:
     :
     Hard:
     15:
     1.000,1.000,1.000,0.236,0.595,788.000,434.000,46.000,0.000,378.000:
0000
0000
0000
0000
,
0000
0000
0000
0000
,
0000
0000
0000
0000
,
0000
0000
0000
0000
,
0000
0000
0000
0000
,
0000
0000
0000
0000
1101
0000
0010
0000
1100
0000
0010
0000
0000
1101
1101
0000
,
0110
0000
0001
0000
1110
0000
0100
0000
0011
0000
0100
0000
0000
1110
1110
0000
,
1001
0111
0000
0000
1110
0000
0001
0000
0110
0000
1000
0000
0000
1101
1101
0000
,
0011
0000
0100
0000
1000
0100
0001
0010
1000
0001
0100
0010
1000
0010
0100
0001
,
0100
1000
0010
0001
1110
0000
0001
0000
1010
0000
0100
0000
0000
1110
1110
0000
,
0101
1000
0110
0001
1010
0101
0010
0101
,
1010
0000
0100
0000
1011
0000
0001
0000
0011
0000
0100
0000
0000
0111
0111
0000
,
0110
0000
0010
0000
1101
0000
1101
0000
1010
1101
0000
1101
0000
0000
1110
0000
,
0111
0000
0100
0000
2110
0000
0001
0000
0110
0000
0001
0000
0000
0111
0111
0000
,
0011
0100
3011
0100
1001
0110
1000
0110
,
1001
0000
0010
0000
1110
0000
0010
0000
1001
0000
0100
0000
0000
1101
1101
0000
,
1010
0000
0100
0000
0001
0010
0100
0001
0110
1000
0010
0100
1000
0010
0001
1000
,
0101
1000
0010
0100
1012
0000
0010
0100
1010
0100
1110
0010
0100
1100
1110
0000
,
1100
0000
0010
0003
0121
1000
0001
0100
1001
0100
1101
0001
0100
1101
1101
1000
,
0101
1101
0001
0030
1210
0000
0000
0000
1001
0010
1011
1000
0010
1001
1011
0000
,
0011
0000
1000
1300
2101
0000
0111
0000
0110
0111
0111
0111
0111
0000
0111
0111
,
0101
0000
0001
3000
0112
0000
1000
0000
0110
0000
1110
0000
0000
1110
1110
0000
,
1010
0000
0010
0003
0121
0000
0001
0000
1100
0000
1101
0000
0000
1101
1101
0000
,
1100
1101
0000
0030
1210
0000
1000
0000
0011
0000
1011
0000
0000
1011
1011
0000
,
1001
0000
0010
0300
1012
0000
1110
0000
1010
1110
1110
1110
1110
0000
1110
0000
,
1100
0000
0010
0003
1110
0000
0100
0000
0011
0000
1000
0000
0000
1101
1101
0000
,
0110
0001
1010
0010
0011
1100
0010
1100
,
0011
0000
1000
0000
0111
0000
0100
0000
1001
0000
0010
0000
0000
1011
1011
0000
,
1100
0001
0020
0000
0100
0001
1000
0000
,
0100
0001
0000
0000
,
0100
0000
0000
0000
1131
0000
0001
0000
1010
0000
0100
0000
0000
0111
0111
0000
,
1100
0010
1001
1000
0101
1010
0100
1010
,
0101
0000
0010
0000
1101
0000
0010
0000
0110
0000
0001
0000
0000
1110
1110
0000
,
0011
0000
0100
0000
0001
0010
0100
0001
1000
0010
1000
0100
0010
1000
0001
0100
,
0010
0100
1000
0100
1021
0000
0001
0100
1001
0001
1101
0100
1000
1001
1101
0000
,
1001
0000
1000
0030
0112
1000
0010
0100
1010
0010
1110
1000
0100
1110
1110
0010
,
1100
1110
1000
0003
1210
0000
0000
0000
0011
0001
1011
0010
1000
1010
1011
0000
,
0011
0000
0001
0301
2101
0000
0111
0000
0101
0111
0111
0111
0111
0000
0111
0111
,
0011
0000
0010
3000
1021
0000
1000
0000
1100
0000
1101
0000
0000
1101
1101
0000
,
0101
0000
0001
0030
2110
0000
0010
0000
0011
0000
0111
0000
0000
0111
0111
0000
,
0101
0111
0000
3000
1012
0000
1000
0000
0110
0000
1110
0000
0000
1110
1110
0000
,
1100
0000
0100
0003
1120
0000
1101
0000
0101
1101
1101
1101
1101
0000
1101
0000
,
1001
0000
0100
0030
2101
0000
0010
0000
0101
0000
0111
0000
0000
0111
0111
0000
,
0101
0000
0010
0000
3211
0000
1000
0000
1001
0000
1011
0000
0000
1011
1011
0000
,
0011
0000
1011
0000
1321
0000
0100
0000
1100
0000
1101
0000
0000
1101
1101
0000
,
0101
0000
0100
0000
1132
0000
1110
0000
1100
1110
1110
1110
1110
0000
1110
0000
,
0110
0000
1000
0000
1123
0000
0100
0000
0101
0000
1101
0000
0000
1101
1101
0000
,
1100
0000
0001
0000
1231
0000
0010
0000
0011
0000
1011
0000
0000
1011
1011
0000
,
1001
0000
1011
0000
2311
0000
0100
0000
0110
0000
0111
0000
0000
0111
0111
0000
,
0101
0000
0100
0000
3211
0000
1011
0000
1001
1011
1011
1011
1011
0000
1011
0000
,
1001
0001
1311
0000
0000
0000
1011
0000
,
1011
0000
1011
1011
,
1101
1101
1110
1110
,
0111
0000
0000
0000
0111
0000
0000
0000
1011
0000
0000
0000
1110
0000
0001
0010
,
1100
0010
0001
0010
0100
1011
1011
0100
1001
0010
0100
0010
1101
0010
0001
0100
,
0011
1000
0100
0010
1000
0111
0111
1000
0101
0111
1000
0001
1110
0001
0010
0100
,
1010
0001
0100
0010
0001
1110
1110
0001
1010
0100
1000
0010
1101
0010
1101
0010
,
1001
1011
1011
1011
0100
1110
1110
0001
1010
0100
0010
0100
1011
0100
0010
0001
,
1010
0000
0000
0000
0100
0010
0100
1000
0100
0000
0010
0000
1012
0000
0100
1000
,
0010
0100
1000
0100
0000
1110
1110
0000
0010
0100
1000
0000
1023
0000
0100
0000
,
0101
1001
0100
1001
1100
1000
1231
0010
,
0011
0000
1000
0000
0000
1011
1011
0000
1000
0000
0010
0000
2311
0000
0111
0000
,
0011
0111
0111
0111
0111
0000
0111
0000
0101
0000
0010
0000
3121
0000
1000
0000
,
0101
0000
0100
0000
0000
1101
1101
0000
1100
0000
0001
0000
1230
0000
0001
0000
,
1000
0010
0001
0010
1000
0010
0001
0010
0001
0010
1000
0000
1312
0000
0100
0000
,
1010
0000
1000
0100
0010
1110
1110
0100
1000
0000
0100
0000
0013
0100
0001
0010
,
1000
0100
0001
1000
0010
0100
0001
0100
0010
1000
0001
0100
2011
0000
0001
0100
,
0011
0100
0111
0100
0010
0101
0111
0000
0011
0000
0010
3000
0121
1000
0001
0100
,
1001
0100
1101
1000
0100
1101
1101
0100
1001
1101
0100
0030
1201
0000
0000
0000
,
1010
0001
1011
1000
0010
1001
1011
0000
1010
0000
0010
0310
0112
0000
1110
0000
,
1010
1110
1110
1110
1110
0000
1110
1110
0110
0000
0010
0003
1021
0000
0100
0000
,
1001
0000
1101
0000
0000
1101
1101
0000
1100
0000
0100
0030
2101
0000
0001
0000
,
0101
0000
0111
0000
0000
0111
0111
0000
0110
0111
0000
3000
1210
0000
0001
0000
,
0011
0000
1011
0000
0000
1011
1011
0000
0010
0000
0001
0300
1020
0000
1101
0000
,
1100
1101
1101
1101
1101
0000
1101
0000
0101
0000
1000
0030
2101
0010
0001
0010
,
0101
0010
0111
0100
0010
0111
0111
0010
0101
0001
0010
3100
0121
1000
0001
0100
,
1001
0100
1101
0001
0100
1101
1101
1000
0101
1000
1101
0130
2011
0100
0001
0010
,
0101
0010
0111
0100
0001
0111
0111
0010
0101
0010
0100
3100
1102
0010
1110
1000
,
0110
1110
1110
1110
1110
1000
1110
0010
1100
0010
1000
0103
1111
0000
1000
0100
,
0010
0001
1110
0001
1000
0111
0111
1000
0010
0001
1000
0100
1011
0100
0010
0100
,
0010
0001
1011
0100
1000
1011
1011
0100
0011
0100
1101
0001
1111
0000
1000
0100
,
1001
0100
1011
0000
0000
0111
0111
0000
1010
0000
0100
0000
1011
0000
1101
0000
,
1110
0111
0111
0111
0111
0000
1110
0000
0011
0000
0100
0000
0002
0000
0000
0000
,
0000
0003
0000
0000
0000
0000
0000
0000
;
